User:      Haso:     



User Info
User:
Haso:
Stwrz kontoOdzyskiwanie hasa


Kategorie

Seriale

Anime

Dla Dzieci

Muzyka

Gry

GSM/PDA

Ksiazki

Programy

Inne



12 Feet Deep *2016* [1080p WEB-DL DD5 1 H264-FGT] [ENG]


Kategoria: Filmy x264/h264

Gatunek: Thrillery / Kryminalne

Doda:  Dezerter33
Data dodania: 
22-06-2017
Rozmiar: 3.20 GB

Seedw: 2081
Peerw: 1160
Ukoczone: 21985

Pobrany: 27

Kondycja:

Pobierz



Produkcja: USA
Gatunek: Thriller
Czas trwania: 85 min.
Premiera: 2016 - wiat
Reyseria: Matt Eskandari
Scenariusz: Matt Eskandari, Michael Hultquist




Dwie siostry zostaj nieoczekiwanie uwizione pod pokryw basenu. Aby przetrwa, musz poczy siy.




Alexandra Park,
Nora-Jane Noone,
Diane Farr,
Tobin Bell




Video
ID : 1
Format : AVC
Format/Info : Advanced Video Codec
Format profile : [email protected]
Format settings, CABAC : Yes
Format settings, ReFrames : 4 frames
Format settings, GOP : N=1
Codec ID : V_MPEG4/ISO/AVC
Duration : 1 h 25 min
Bit rate : 4 880 kb/s
Width : 1 904 pixels
Height : 1 064 pixels
Display aspect ratio : 16:9
Frame rate mode : Constant
Frame rate : 23.976 (24000/1001) FPS
Color space : YUV
Chroma subsampling : 4:2:0
Bit depth : 8 bits
Scan type : Progressive
Bits/(Pixel*Frame) : 0.100
Stream size : 2.91 GiB (91%)
Title : 12.Feet.Deep.2016.1080p.WEB-DL.DD5.1.H264-FGT
Language : English
Default : Yes
Forced : No
Color range : Limited
Color primaries : BT.709
Transfer characteristics : BT.709
Matrix coefficients : BT.709

Audio
ID : 2
Format : AC-3
Format/Info : Audio Coding 3
Format settings, Endianness : Big
Codec ID : A_AC3
Duration : 1 h 25 min
Bit rate mode : Constant
Bit rate : 384 kb/s
Channel(s) : 6 channels
Channel positions : Front: L C R, Side: L R, LFE
Sampling rate : 48.0 kHz
Frame rate : 31.250 FPS (1536 spf)
Bit depth : 16 bits
Compression mode : Lossy
Delay relative to video : -42 ms
Stream size : 235 MiB (7%)
Title : 12.Feet.Deep.2016.1080p.WEB-DL.DD5.1.H264-FGT
Language : English
Service kind : Complete Main
Default : Yes
Forced : No

Text
ID : 3
Format : UTF-8
Codec ID : S_TEXT/UTF8
Codec ID/Info : UTF-8 Plain Text
Language : English
Default : Yes
Forced : No
Pliki
(4) files
Ocena N/A
Tracker
Podobne


Komentarze


Brak Komentarzy!!!