User:      Haso:     



User Info
User:
Haso:
Stwrz kontoOdzyskiwanie hasa


Kategorie

Seriale

Anime

Dla Dzieci

Muzyka

Gry

GSM/PDA

Ksiazki

Programy

Inne



Thor: Ragnarok (2017) [720p] [WEB-DL] [H264 AC3] [EVO] [ENG]


Kategoria: Filmy x264/h264

Gatunek: Akcja / Sensacyjny

Doda:  RIAS
Data dodania: 
22-01-2018
Rozmiar: 4.00 GB

Seedw: 11
Peerw: 11
Ukoczone: 20

Pobrany: 1

Kondycja:

Pobierz



Produkcja: USA
Gatunek: Fantasy, Przygodowy
Premiera: 25 padziernika 2017 (Polska), 10 padziernika 2017 (wiat)
Reyseria: Taika Waititi
Scenariusz: Craig Kyle, Christopher Yost




Thor zostaje uwiziony po drugiej stronie wszechwiata. Osabiony i pozbawiony mota musi znale sposb, by powrci do Asgardu i stawi czoa bezwzgldnej i wszechpotnej Heli oraz powstrzyma Ragnarok – "zmierzch bogw", zagad wiata i caej asgardzkiej cywilizacji. Przedtem jednak musi stan do gladiatorskiego pojedynku na mier i ycie z byym sprzymierzecem i czonkiem druyny Avengers — niesamowitym Hulkiem!



★ Chris Hemsworth .... Thor
★ Tom Hiddleston .... Loki
★ Cate Blanchett .... Hela
★ Idris Elba .... Heimdall
★ Jeff Goldblum .... Arcymistrz
★ Tessa Thompson .... Walkiria
★ Karl Urban .... Skurge
★ Mark Ruffalo .... Bruce Banner / Hulk





Cytuj:
General
Complete name : Thor.Ragnarok.2017.720p.WEB-DL.H264.AC3-EVOThor.Ragnarok.2017.720p.WEB-DL.H264.AC3-EVO.mkv
Format : Matroska
Format version : Version 4 / Version 2
File size : 4.00 GiB
Duration : 2h 10mn
Overall bit rate : 4 384 Kbps
Movie name : EVO
Encoded date : UTC 2018-01-21 18:40:21
Writing application : mkvmerge v9.9.0 ('Pick Up') 32bit
Writing library : libebml v1.3.4 + libmatroska v1.4.5

Video
ID : 3
Format : AVC
Format/Info : Advanced Video Codec
Format profile : [email protected]
Format settings, CABAC : No
Format settings, ReFrames : 2 frames
Codec ID : V_MPEG4/ISO/AVC
Duration : 2h 10mn
Bit rate : 3 998 Kbps
Width : 1 280 pixels
Height : 536 pixels
Display aspect ratio : 2.40:1
Frame rate mode : Constant
Frame rate : 23.976 fps
Color space : YUV
Chroma subsampling : 4:2:0
Bit depth : 8 bits
Scan type : Progressive
Bits/(Pixel*Frame) : 0.243
Stream size : 3.65 GiB (91%)
Language : English
Default : Yes
Forced : No
Color range : Limited
Color primaries : BT.709
Transfer characteristics : BT.709
Matrix coefficients : BT.709

Audio
ID : 2
Format : AC-3
Format/Info : Audio Coding 3
Mode extension : CM (complete main)
Format settings, Endianness : Big
Codec ID : A_AC3
Duration : 2h 10mn
Bit rate mode : Constant
Bit rate : 384 Kbps
Channel(s) : 6 channels
Channel positions : Front: L C R, Side: L R, LFE
Sampling rate : 48.0 KHz
Frame rate : 31.250 fps (1536 spf)
Compression mode : Lossy
Stream size : 358 MiB (9%)
Language : English
Default : Yes
Forced : No

Text #1
ID : 1
Format : UTF-8
Codec ID : S_TEXT/UTF8
Codec ID/Info : UTF-8 Plain Text
Duration : 2h 9mn
Bit rate : 49 bps
Count of elements : 1568
Stream size : 47.1 KiB (0%)
Language : English
Default : Yes
Forced : No

Text #2
ID : 4
Format : UTF-8
Codec ID : S_TEXT/UTF8
Codec ID/Info : UTF-8 Plain Text
Duration : 2h 2mn
Bit rate : 86 bps
Count of elements : 1250
Stream size : 77.2 KiB (0%)
Title : bg
Language : Bulgarian
Default : No
Forced : No

Text #3
ID : 5
Format : UTF-8
Codec ID : S_TEXT/UTF8
Codec ID/Info : UTF-8 Plain Text
Duration : 2h 0mn
Bit rate : 52 bps
Count of elements : 1375
Stream size : 46.5 KiB (0%)
Title : ro
Language : Romanian
Default : No
Forced : No

Menu
00:00:00.000 : en:The Great Prophecy
00:06:20.000 : en:The Tragedy Of Loki Of Asgard
00:14:11.000 : en:A Worthy Inclusion
00:22:12.000 : en:The Goddess Of Death
00:26:39.000 : en:"Are You A Fighter, Or Are You Food?"
00:31:29.000 : en:Heiress Apparent
00:35:03.000 : en:The Grandmaster
00:42:49.000 : en:The Eternal Flame
00:48:30.000 : en:The Contest Of Champions
00:59:38.000 : en:The Resistance
01:07:58.000 : en:Hotheaded Fools
01:17:30.000 : en:The Revengers
01:27:25.000 : en:"The Revolution Has Begun"
01:36:08.000 : en:Ready For War
01:42:35.000 : en:"Asgard Is Not A Place"
01:49:20.000 : en:"What Were You The God Of Again?"
01:54:57.000 : en:Ragnarok
02:00:37.000 : en:End Credits














Pliki
(2) files
Ocena N/A
Tracker
Podobne


Komentarze


Brak Komentarzy!!!